<?xml version="1.0" standalone="no"?>
<!DOCTYPE svg PUBLIC "-//W3C//DTD SVG 1.1//EN" "http://www.w3.org/Graphics/SVG/1.1/DTD/svg11.dtd" >
<svg xmlns="http://www.w3.org/2000/svg">
<metadata>Generated by IcoMoon</metadata>
<defs>
<font id="icomoon" horiz-adv-x="1024">
<font-face units-per-em="1024" ascent="819.2" descent="-204.8" />
<missing-glyph horiz-adv-x="1024" />
<glyph unicode="&#x20;" horiz-adv-x="0" d="" />
<glyph unicode="&#xe900;" glyph-name="next" d="M471.21 306.272l-129.732-271.216-26.589 12.717-11.435 27.162 667.294 280.944 11.436-27.162-10.437-27.561-676.598 256.207 10.439 27.561 26.117 13.654 139.035-265.935c4.301-8.226 4.475-17.998 0.469-26.372zM418.038 331.706l26.587-12.717-26.115-13.655-139.038 265.935c-12.555 24.009 11.217 50.81 36.55 41.216l676.6-256.207c24.887-9.424 25.525-44.397 0.999-54.723l-667.296-280.944c-24.98-10.518-49.717 15.426-38.017 39.879l129.731 271.216z" />
<glyph unicode="&#xe901;" glyph-name="pre" d="M553.276 332.187l139.838 266.16 26.095-13.707 10.404-27.574-677.406-255.68-10.407 27.573 11.465 27.151 666.522-281.463-11.465-27.151-26.613-12.664-128.954 270.983c-3.989 8.382-3.795 18.154 0.522 26.372zM605.457 304.772l-26.091 13.708 26.61 12.664 128.952-270.983c11.641-24.465-13.115-50.355-38.078-39.814l-666.518 281.463c-24.516 10.353-23.84 45.327 1.058 54.724l677.408 255.681c25.364 9.572 49.106-17.284 36.498-41.282l-139.839-266.16z" />
<glyph unicode="&#xe902;" glyph-name="more" d="M577.579 637.44v-145.493c0-60.587 48.64-109.227 108.373-109.227h144.213c60.16 0 108.373 48.64 108.373 109.227v145.493c0 60.16-48.213 109.227-108.373 109.227h-144.213c-59.733 0-108.373-49.067-108.373-109.227zM85.333 637.44v-145.493c0-60.587 48.64-109.227 108.373-109.227h144.213c60.16 0 108.373 48.64 108.373 109.227v145.493c0 60.16-48.213 109.227-108.373 109.227h-144.213c-59.733 0-108.373-49.067-108.373-109.227zM85.333 148.245v-145.493c0-60.587 48.64-109.227 108.373-109.227h144.213c60.16 0 108.373 48.64 108.373 109.227v145.493c0 60.16-48.213 109.227-108.373 109.227h-144.213c-59.733 0-108.373-49.067-108.373-109.227zM577.579 2.752v145.493c0 60.16 48.64 109.227 108.373 109.227h144.213c60.16 0 108.373-49.067 108.373-109.227v-145.493c0-60.587-48.213-109.227-108.373-109.227h-144.213c-59.733 0-108.373 48.64-108.373 109.227z" />
<glyph unicode="&#xe903;" glyph-name="arrow_left" d="M970.382 320.142c0-253.156-205.369-458.524-458.524-458.524-252.587 0-458.524 205.369-458.524 458.524 0 252.587 205.938 458.524 458.524 458.524 253.156 0 458.524-205.938 458.524-458.524zM117.618 320.142c0-217.884 176.924-394.809 394.24-394.809 217.884 0 394.809 176.924 394.809 394.809 0 217.316-176.924 394.24-394.809 394.24-217.316 0-394.24-176.924-394.24-394.24zM693.618 320.142c0 17.067-14.791 31.858-32.427 31.858h-256c-17.636 0-31.858-14.791-31.858-31.858 0-17.636 14.222-32.427 31.858-32.427h256c17.636 0 32.427 14.791 32.427 32.427zM512.711 214.898l-105.244 105.244 105.244 105.244c12.516 12.516 12.516 32.996 0 45.511-11.947 11.947-32.427 11.947-44.942 0l-128-128c-11.947-12.516-11.947-32.996 0-45.511l128-128c6.258-6.258 14.791-9.671 22.756-9.671s15.929 3.413 22.187 9.671c12.516 12.516 12.516 32.996 0 45.511z" />
<glyph unicode="&#xe904;" glyph-name="cut1" d="M804.265 288.169h-115.2c-113.664 0-166.4 52.738-166.4 166.402v157.696c0 113.664 52.736 166.4 166.4 166.4h115.2c113.664 0 166.4-52.736 166.4-166.4v-157.696c0-113.664-52.736-166.402-166.4-166.402zM586.665 454.571c0-78.848 24.064-102.4 102.4-102.4h115.2c78.336 0 102.4 23.552 102.4 102.4v157.696c0 78.336-24.064 102.4-102.4 102.4h-115.2c-78.336 0-102.4-24.064-102.4-102.4v-157.696zM334.938 352c113.664 0 166.4-52.736 166.4-166.4v-157.696c0-113.664-52.736-166.4-166.4-166.4h-115.2c-113.664 0-166.4 52.736-166.4 166.4v157.696c0 113.664 52.736 166.4 166.4 166.4h115.2zM334.938-74.496c78.336 0 102.4 23.552 102.4 102.4v157.696c0 78.336-24.064 102.4-102.4 102.4h-115.2c-78.336 0-102.4-24.064-102.4-102.4v-157.696c0-78.848 24.064-102.4 102.4-102.4h115.2zM639.744-138.496c182.272 0 330.752 148.48 331.264 330.24 0 17.92-14.336 32.256-31.744 32.256-17.92 0-32.256-14.336-32.256-32.256 0-125.952-88.064-231.936-206.336-259.584l11.776 19.456c8.704 15.36 4.096 34.816-11.264 43.52-15.36 9.216-34.816 4.608-44.032-10.752l-44.544-74.752c-6.144-9.728-6.144-22.528-0.512-32.256s16.384-15.872 27.648-15.872zM411.738 762.283c-5.632 9.728-15.872 16.384-27.648 16.384-182.272 0-330.752-148.48-330.752-330.752 0-17.408 14.336-31.744 32.256-31.744 17.408 0 31.744 14.336 31.744 31.744 0 126.464 88.064 232.448 206.336 260.096l-11.776-19.456c-9.216-15.36-4.096-34.816 10.752-44.032 15.36-9.216 34.816-4.096 44.032 10.752l44.544 75.264c6.144 9.728 6.144 22.016 0.512 31.744z" />
<glyph unicode="&#xe905;" glyph-name="cut2" d="M654.85-192h-285.699c-258.687 0-369.15 110.866-369.15 369.15v285.699c0 258.687 110.463 369.15 369.15 369.15h285.699c258.285 0 369.15-110.463 369.15-369.15v-285.699c0-258.285-110.866-369.15-369.15-369.15zM369.15 760.388c-219.433 0-297.539-78.106-297.539-297.539v-285.699c0-219.433 78.106-297.539 297.539-297.539h285.699c219.433 0 297.539 78.106 297.539 297.539v285.699c0 219.433-78.106 297.539-297.539 297.539h-285.699zM1023.885 486.644c0 19.426-16.38 35.806-35.806 35.806h-950.837c-19.426 0-35.806-16.38-35.806-35.806s16.38-35.806 35.806-35.806h950.837c19.426 0 35.806 16.38 35.806 35.806zM1023.885 153.356c0 19.426-16.38 35.806-35.806 35.806h-950.837c-19.426 0-35.806-16.38-35.806-35.806s16.38-35.806 35.806-35.806h950.837c19.426 0 35.806 16.38 35.806 35.806zM381.622-155.16v950.837c0 19.426-16.38 35.806-35.806 35.806s-35.806-16.38-35.806-35.806v-951.239c0-19.426 16.38-35.806 35.806-35.806 19.828 0 35.806 16.38 35.806 36.208zM714.909-155.16v950.837c0 19.426-16.38 35.806-35.806 35.806s-35.806-16.38-35.806-35.806v-951.239c0-19.426 16.38-35.806 35.806-35.806 19.828 0 35.806 16.38 35.806 36.208z" />
<glyph unicode="&#xe906;" glyph-name="cut3" d="M1023.758 372.594c0-91.456-46.578-136.052-142.14-136.052h-191.973c-95.987 0-142.14 44.596-142.14 136.052v323.778c0 91.456 46.861 135.627 142.14 135.627h191.973c95.987 0 142.14-44.171 142.14-135.627v-323.778zM881.618 760.364h-191.973c-60.593 0-70.504-15.998-70.504-63.991v-323.778c0-48.418 9.91-64.416 70.504-64.416h191.973c60.593 0 70.928 15.998 70.928 64.416v323.778c0 47.993-10.335 63.991-70.928 63.991zM881.76 165.331c95.987 0 142.14-44.171 142.14-135.627v-85.652c0-91.456-46.578-136.052-142.14-136.052h-191.973c-95.987 0-142.14 44.596-142.14 136.052v85.652c0 91.456 46.861 135.627 142.14 135.627h191.973zM689.786 93.695c-60.593 0-70.504-15.998-70.504-63.991v-85.652c0-48.418 9.91-64.416 70.504-64.416h191.973c60.593 0 70.928 15.998 70.928 64.416v85.652c0 47.993-10.335 63.991-70.928 63.991h-191.973zM334.154 403.457c95.987 0 142.14-44.171 142.14-135.627v-323.778c0-91.456-46.578-136.052-142.14-136.052h-191.973c-95.987 0-142.14 44.596-142.14 136.052v323.778c0 91.456 46.861 135.627 142.14 135.627h191.973zM71.677 267.83v-323.778c0-48.418 9.91-64.416 70.504-64.416h191.973c60.593 0 70.787 15.998 70.787 64.416v323.778c0 47.993-10.335 63.991-70.787 63.991h-191.973c-60.593 0-70.504-15.998-70.504-63.991zM334.154 832c95.987 0 142.14-44.171 142.14-135.627v-85.652c0-91.456-46.578-136.052-142.14-136.052h-191.973c-95.987 0-142.14 44.596-142.14 136.052v85.652c0 91.456 46.861 135.627 142.14 135.627h191.973zM142.18 546.305h191.973c60.593 0 70.787 15.998 70.787 64.416v85.652c0 47.993-10.335 63.991-70.787 63.991h-191.973c-60.593 0-70.504-15.998-70.504-63.991v-85.652c0-48.418 9.91-64.416 70.504-64.416z" />
<glyph unicode="&#xe907;" glyph-name="more1" d="M20.031 731.191l492.086-529.634 492.089 529.634-50.062 46.649-442.027-476.16-442.030 476.16-50.057-46.649zM954.143 402.373l-442.027-476.158-442.030 476.158-50.057-46.649 492.086-529.634 492.089 529.634-50.062 46.649z" />
<glyph unicode="&#xe908;" glyph-name="bag" d="M872.107 501.76c20.907-23.040 27.733-58.453 22.187-111.786l-32-340.907c-7.253-67.84-26.027-123.733-179.627-123.733h-341.333c-154.027 0-172.373 55.893-179.627 123.307l-32 341.76c-5.547 52.906 1.28 88.32 22.187 111.36 25.173 28.16 74.667 42.24 146.773 42.24h426.667c72.107 0 121.6-14.080 146.773-42.24zM341.333-138.667h341.333c197.12 0 233.813 91.733 243.2 181.333l32 340.907c4.693 45.226 5.973 111.36-38.4 160.853-37.973 42.24-101.547 63.147-194.133 63.147h-426.667c-92.16 0-155.733-20.48-194.133-63.147-44.373-49.493-43.093-115.627-38.4-160.426l32-341.76c9.387-89.173 46.080-180.907 243.2-180.907zM309.333 576c0-17.493 14.507-32 32-32s32 14.507 32 32v34.133c0 75.947 0 104.533 104.533 104.533h68.267c104.533 0 104.533-28.587 104.533-104.533v-34.133c0-17.493 14.507-32 32-32s32 14.507 32 32v34.133c0 75.093 0 168.533-168.533 168.533h-68.267c-168.533 0-168.533-93.44-168.533-168.533v-34.133zM458.667 233.387v43.947c0 3.413 0 7.253 0 10.667 3.413 0 7.253 0 10.667 0h85.333c3.413 0 7.253 0 10.667 0 0-3.413 0-7.253 0-10.667v-43.52c0-45.653 0-52.48-53.333-52.48s-53.333 8.107-53.333 52.053zM554.667 352h-85.333c-60.16 0-74.667-14.507-74.667-74.667v-43.947c0-43.52 0-116.053 117.333-116.053s117.333 72.96 117.333 117.333v42.667c0 60.16-14.507 74.667-74.667 74.667zM601.173 201.813c123.733 15.787 241.493 62.293 341.333 134.827 14.507 10.667 17.493 30.72 7.253 44.8-10.667 14.507-30.72 17.92-44.8 7.253-90.88-66.133-198.827-108.8-311.467-122.88-17.493-2.133-29.867-18.347-27.733-35.84 1.707-16.213 15.787-28.16 31.573-28.16 1.28 0 2.56 0 3.84 0zM457.382 229.547c2.133 17.493-10.667 33.28-28.16 35.413-106.242 12.373-209.922 51.2-299.948 112.64-14.507 9.813-34.56 5.973-44.373-8.533s-5.973-34.56 8.533-44.373c98.56-67.413 212.48-110.080 328.96-123.307 1.28 0 2.56 0 3.84 0 16.215 0 29.868 11.947 31.148 28.16z" />
<glyph unicode="&#xe909;" glyph-name="left1" horiz-adv-x="820" d="M687.092 319.932l132.487-511.932-819.579 511.932 819.579 512.068-132.487-512.068zM603.141 320.027l86.699 335.147-536.452-335.147 536.452-335.147-86.699 335.147zM514.848 320.038l48.904-189.113-302.635 189.113 302.635 188.977-48.904-188.977z" />
<glyph unicode="&#xe90a;" glyph-name="right1" horiz-adv-x="820" d="M132.487 320.068l-132.487 511.932 819.579-511.932-819.579-512.068 132.487 512.068zM216.438 319.973l-86.699-335.147 536.452 335.147-536.452 335.147 86.699-335.147zM304.732 319.962l-48.904 189.113 302.635-189.113-302.635-188.977 48.904 188.977z" />
<glyph unicode="&#xe90b;" glyph-name="top" horiz-adv-x="683" d="M683.071 285.292l-341.58 546.708-341.491-546.708 341.491 88.377 341.58-88.377zM565.027 371.833l-223.473 357.846-223.563-357.846 223.563 57.834 223.473-57.834zM467.615 9.875l-126.059 318.719-126.15-318.719 126.15-201.876 126.059 201.876z" />
<glyph unicode="&#xe90c;" glyph-name="close" d="M926.697 832l97.303-97.303-414.697-414.701 414.697-414.697-97.303-97.299-414.697 414.697-414.697-414.697-97.303 97.303 414.697 414.692-414.697 414.701 97.303 97.299 414.697-414.692z" />
<glyph unicode="&#xe90d;" glyph-name="back" horiz-adv-x="1511" d="M471.773 815.28c22.291 22.291 58.434 22.291 80.725 0s22.291-58.434 0-80.725l-357.469-357.469h1258.872c31.526 0 57.089-25.559 57.089-57.089 0-31.526-25.559-57.089-57.089-57.089h-1258.872l357.469-357.469c22.291-22.291 22.291-58.434 0-80.725s-58.434-22.291-80.725 0l-452.675 452.675c-11.72 10.454-19.098 25.668-19.098 42.609s7.382 32.154 19.098 42.609l452.675 452.675z" />
<glyph unicode="&#xe90e;" glyph-name="right" horiz-adv-x="1125" d="M0 832.002l1125.19-431.929v-160.154l-1125.19-431.92v155.791l927.967 356.211-927.967 356.22z" />
<glyph unicode="&#xe90f;" glyph-name="play-left" horiz-adv-x="618" d="M576.916 719.738c54.475-132.13 82.006-832.305-91.372-904.34-55.081-22.876-113.87 12.053-152.641 41.874-54.305 41.779-183.975 168.459-225.848 208.232-91.675 87.077-123.823 217.296-98.96 334.023 10.104 47.436 29.631 92.64 58.411 131.808 51.334 69.859 215.687 216.88 282.065 265.432 34.513 25.241 82.971 47.342 133.378 27.701 48.269-18.808 77.446-62.233 94.987-104.75zM424.805 722.122c-58.146-14.835-110.37-82.479-173.265-139.452s-138.96-120.587-163.294-176.331c-20.379-46.699-39.338-125.375 22.914-212.83 45.601-64.069 189.67-184.126 256.52-243.521 19.735-17.521 52.867-35.383 83.936-32.375 122.007 11.769 101.382 566.627 84.334 677.488-8.761 56.878-34.21 146.68-111.146 127.040z" />
<glyph unicode="&#xe910;" glyph-name="play-right" horiz-adv-x="618" d="M41.51 719.738c-54.475-132.13-82.006-832.305 91.372-904.34 55.081-22.876 113.87 12.053 152.641 41.874 54.305 41.779 183.975 168.459 225.848 208.232 91.675 87.077 123.823 217.296 98.96 334.023-10.104 47.436-29.631 92.64-58.411 131.808-51.334 69.859-215.687 216.88-282.065 265.432-34.513 25.241-82.971 47.342-133.378 27.701-48.269-18.808-77.446-62.233-94.987-104.75zM193.621 722.122c58.146-14.835 110.37-82.479 173.265-139.452s138.96-120.587 163.294-176.331c20.379-46.699 39.338-125.375-22.914-212.83-45.601-64.069-189.67-184.126-256.52-243.521-19.735-17.521-52.867-35.383-83.936-32.375-122.007 11.769-101.382 566.627-84.334 677.488 8.761 56.878 34.21 146.68 111.146 127.040z" />
<glyph unicode="&#xe911;" glyph-name="down" horiz-adv-x="1632" d="M272.632 831.993l543.571-732.532 543.571 732.532h272.632l-759.858-1023.985h-112.691l-759.858 1023.985z" />
<glyph unicode="&#xe912;" glyph-name="download" horiz-adv-x="1135" d="M1135.451 323.938v-444.976c0-19.573-7.972-37.332-20.801-50.16-12.839-12.839-30.587-20.801-50.16-20.801h-993.518c-19.573 0-37.321 7.972-50.16 20.801-12.839 12.839-20.801 30.587-20.801 50.16v444.976h107.525v-408.423h920.401v408.423h107.525zM957.328 490.727l-389.608-389.608-389.608 389.608h276.608v341.272h225.989v-341.272h276.608z" />
<glyph unicode="&#xe913;" glyph-name="top1" horiz-adv-x="1632" d="M272.623-192.002l543.58 732.532 543.58-732.532h272.623l-759.886 1024.004h-112.635l-759.886-1024.004z" />
<glyph unicode="&#xe914;" glyph-name="left" horiz-adv-x="565" d="M15.415 282.784c-20.552 20.552-20.552 53.877 0 74.432l459.369 459.369c20.552 20.552 53.877 20.552 74.432 0 20.552-20.552 20.552-53.877 0-74.432l-422.153-422.153 422.153-422.153c20.552-20.552 20.552-53.877 0-74.432-20.552-20.552-53.877-20.552-74.432 0l-459.369 459.369z" />
<glyph unicode="&#xe915;" glyph-name="right2" horiz-adv-x="775" d="M120.203-178.204c-34.606-24.17-82.248-15.716-106.418 18.89s-15.716 82.248 18.89 106.418l532.585 372.92-532.585 372.92c-34.606 24.17-43.044 71.812-18.89 106.418 24.17 34.606 71.812 43.044 106.418 18.89l620.702-434.621c3.67-2.446 7.138-5.218 10.389-8.33l1.13-1.084 0.248-0.248 1.084-1.13c5.032-5.249 9.197-11.102 12.464-17.357l0.619-1.208 0.108-0.232 0.403-0.821 0.434-0.898 0.542-1.192 0.124-0.263c4.026-9.104 6.131-18.72 6.441-28.319v-0.077l0.031-1.146v-2.508l-0.031-1.146v-0.077c-0.294-9.6-2.415-19.215-6.441-28.319l-0.124-0.263-0.542-1.192-0.434-0.898-0.403-0.821-0.108-0.232-0.619-1.208c-3.267-6.255-7.432-12.108-12.464-17.357l-1.084-1.13-0.248-0.248-1.13-1.084c-3.252-3.112-6.72-5.899-10.389-8.33l-620.702-434.621z" />
<glyph unicode="&#xe916;" glyph-name="share" d="M862.876 100.569c-45.24 0-85.176-20.99-112.020-53.244-104.183 58.946-208.354 117.877-312.539 176.821 14.020 27.978 22.241 60.955 22.276 95.848v0.011c0 33.057-7.532 64.29-20.625 92.419l233.871 150.667c22.363-14.808 49.81-23.634 79.317-23.66h0.007c80.792 0 146.282 65.492 146.282 146.284s-65.49 146.284-146.284 146.284-146.284-65.492-146.284-146.284c0-24.57 6.622-47.361 17.338-67.69-75.211-48.443-150.409-96.885-225.609-145.341-39.818 41.18-95.562 66.745-157.276 66.745-0.057 0-0.114 0-0.171 0h0.009c-121.199 0.022-219.459-98.193-219.479-219.383-0.022-121.19 98.195-219.448 219.383-219.481 0.012 0 0.026 0 0.040 0 60.295 0 114.91 24.32 154.571 63.685l-0.014-0.014c107.882-61.023 215.751-122.046 323.631-183.069-1.638-8.042-2.621-17.321-2.709-26.814l-0.001-0.071c0-80.79 65.502-146.284 146.284-146.284 80.792 0 146.282 65.493 146.282 146.284 0.002 80.794-65.488 146.285-146.28 146.285z" />
</font>
</defs>
</svg>
